Новые товары iconBIT

Всем рекомендуем заходить в этот раздел минимум 2 раза в неделю...

Re: Новые товары iconBIT

Сообщение Sesil b » 29 дек 2011, 17:33

Admin1 писал(а):IR пульт отдельно не продается, пока не продается...

А к toucan w подходит? Видео и аудио запускать получится? Жена с родным тукановским дружить не хочет))) Отдельно не продается -ну и ладно, если плюшки android 4.0 будут удачно реализованы, я toucan mini на кухню куплю.
Sesil b
 
Сообщения: 126
Зарегистрирован: 15 сен 2011, 18:13

Re: Новые товары iconBIT

Сообщение vin_rain » 30 дек 2011, 20:15

Видеорегистратор DVR FHD уже есть в продаже в магазине Proaudio на Горбушкеном дворе.
Багратионовский проезд, д.7. ТК «Горбушкин двор», павильон B2-290 (495) 737-60-19
Аватара пользователя
vin_rain
 
Сообщения: 48
Зарегистрирован: 21 май 2010, 20:57

Увидела в сети NetTAB PRIDE - показалось?

Сообщение Jullah » 04 янв 2012, 09:29

Не мне, а, видимо, товарищам:
http://1digital.ru/cat/iconBIT_NetTAB_PRIDE_122262.html ?
А то я уж обрадовалась - а рунет молчит про эту штуку.
Jullah
 
Сообщения: 1
Зарегистрирован: 04 янв 2012, 09:11

когда ожидается DVB-T для XDS210DVD

Сообщение edward_1 » 04 янв 2012, 21:55

Хотелось бы услышать что нибудь по поводу перспектив выхода в продажу DVB-T тюнера для XDS210DVD. От этого зависит мой выбор плеера, который я буду покупать. Либо это будет HDR21DVD с тюнером но с несколько устаревшим чипом, либо XDS210DVD - поновее, но тюнер в перспективе
edward_1
 
Сообщения: 5
Зарегистрирован: 30 дек 2011, 08:09

Re: когда ожидается DVB-T для XDS210DVD

Сообщение edward_1 » 12 янв 2012, 07:28

edward_1 писал(а):Хотелось бы услышать что нибудь по поводу перспектив выхода в продажу DVB-T тюнера для XDS210DVD. От этого зависит мой выбор плеера, который я буду покупать. Либо это будет HDR21DVD с тюнером но с несколько устаревшим чипом, либо XDS210DVD - поновее, но тюнер в перспективе

Уважаемые модераторы! Помогите же наконец с выбором. В идеале хотел бы приобрести XDS210DVD с DVB-T тюнером на борту, но таковых сейчас нет в продаже. Есть ли смысл ждать появления тюнеров для этой модели плеера или придется брать младшую модель HDR21DVD?
edward_1
 
Сообщения: 5
Зарегистрирован: 30 дек 2011, 08:09

Re: Новые товары iconBIT

Сообщение OlegLi » 12 янв 2012, 08:15

Ожидается ли выход в продажу тюнера DVB-T2 для XDR10DVBT,
а то у нас на Юге Тюменской области запустили цифру в формате DVB-T2.
XDR10DVBT + HDD 3.5" 750Gb Seagate
OlegLi
 
Сообщения: 7
Зарегистрирован: 12 апр 2011, 07:45

Re: Новые товары iconBIT

Сообщение eVIL » 17 янв 2012, 23:10

OlegLi писал(а):Ожидается ли выход в продажу тюнера DVB-T2 для XDR10DVBT,
а то у нас на Юге Тюменской области запустили цифру в формате DVB-T2.

Поддержу вопрос по поводу выпуска тюнера DVB-T2, или нового аппарата с DVB-T2 вашей компании.
Есть ли надежды на скорый выпуск,или искать у конкурентов? Формат принят для использования в России как основной!
eVIL
 
Сообщения: 7
Зарегистрирован: 16 дек 2010, 03:08

Re: Новые товары iconBIT

Сообщение Prosecutor » 17 янв 2012, 23:35

Есть ли/будут ли плееры, поддерживающие возможность воспроизводить на 3D телевизоре трехмерного сигнала с Блюреевских образов? Спасибо
Prosecutor
 
Сообщения: 12
Зарегистрирован: 17 янв 2012, 23:33

Re: Новые товары iconBIT

Сообщение plusPlus » 18 янв 2012, 13:01

Есть в продаже 2 модели
XDS1003D
XDS73D
Аватара пользователя
plusPlus
Администратор
 
Сообщения: 8463
Зарегистрирован: 11 дек 2007, 22:03
Откуда: Moscow

Re: Новые товары iconBIT

Сообщение caligula73 » 18 янв 2012, 21:25

подскажите . какие модели сетевых медиаплееров могут без тормозов(затыков) воспроизвести этот клип по сети.?
http://rutracker.org/forum/viewtopic.php?t=3740709
Complete name : F:\Clips\Обе Две - Гонщики (2011).mp4
Format : MPEG-4
Format profile : Base Media / Version 2
Codec ID : mp42
File size : 640 MiB
Duration : 2mn 18s
Overall bit rate mode : Variable
Overall bit rate : 38.7 Mbps
Encoded date : UTC 2011-09-19 02:49:52
Tagged date : UTC 2011-09-19 02:49:52
©TIM : 00:00:00:00
©TSC : 25
©TSZ : 1

Video
ID : 1
Format : AVC
Format/Info : Advanced Video Codec
Format profile : Main@L4.2
Format settings, CABAC : Yes
Format settings, ReFrames : 3 frames
Codec ID : avc1
Codec ID/Info : Advanced Video Coding
Duration : 2mn 18s
Bit rate mode : Constant
Bit rate : 37.4 Mbps
Nominal bit rate : 50.0 Mbps
Width : 1 920 pixels
Height : 1 080 pixels
Display aspect ratio : 16:9
Frame rate mode : Constant
Frame rate : 25.000 fps
Standard : PAL
Color space : YUV
Chroma subsampling : 4:2:0
Bit depth : 8 bits
Scan type : Progressive
Bits/(Pixel*Frame) : 0.721
Stream size : 618 MiB (96%)
Language : English
Encoded date : UTC 2011-09-19 02:49:52
Tagged date : UTC 2011-09-19 02:49:52

Audio
ID : 2
Format : AAC
Format/Info : Advanced Audio Codec
Format profile : LC
Codec ID : 40
Duration : 2mn 18s
Bit rate mode : Variable
Bit rate : 317 Kbps
Maximum bit rate : 455 Kbps
Channel(s) : 2 channels
Channel positions : Front: L R
Sampling rate : 48.0 KHz
Compression mode : Lossy
Stream size : 5.25 MiB (1%)
Language : English
Encoded date : UTC 2011-09-19 02:49:52
Tagged date : UTC 2011-09-19 02:49:52
Material_Duration : 138731
Material_StreamSize : 5503706

HDS6L не может. а через sata без проблем.
Аватара пользователя
caligula73
 
Сообщения: 111
Зарегистрирован: 16 ноя 2011, 23:29

Пред.След.

Вернуться в Полезная информация



Кто сейчас на конференции

Сейчас этот форум просматривают: нет зарегистрированных пользователей и гости: 2