Проблемы с файлами ISO!

Android mini PC Toucan SMART

Re: Проблемы с файлами ISO!

Сообщение Support1 » 25 янв 2014, 18:23

GyK07 писал(а):Ты нажимаешь на файл пытаясь воспроизвести и проваливаешься внутрь файла, где все пусто. Файл кот весит 50 гигов, а внутри все пусто.круто!

Для воспроизведения файлов ISO, используйте файловый менеджер который находится в пункте Приложения.
Для воспроизведения файлов ISO, не используйте Медиацентр.
FAQ+Manual_Android
Не стесняйтесь напоминать мне в личку о моих обещаниях :)
Помочь кому то, не значит сделать всё за него. Это значит подсказать человеку верный путь, если он сбился.
Аватара пользователя
Support1
Модератор
 
Сообщения: 7667
Зарегистрирован: 12 дек 2007, 12:40

Re: Проблемы с файлами ISO!

Сообщение GyK07 » 26 янв 2014, 04:37

Support1 писал(а):
GyK07 писал(а):Ты нажимаешь на файл пытаясь воспроизвести и проваливаешься внутрь файла, где все пусто. Файл кот весит 50 гигов, а внутри все пусто.круто!

Для воспроизведения файлов ISO, используйте файловый менеджер который находится в пункте Приложения.
Для воспроизведения файлов ISO, не используйте Медиацентр.

Ты даже не представляешь как я только не пытался воспроизвести файл ISO и используйте файловый менеджер который находится в пункте Приложения, и через проводник в приложениях, и через галерею, и скачивал плееры с гугл маркет. В некоторых случаях эти файлы попросту не отображаются. А в случае с файловым менеджером он просто так же выдает на них значёк txt, а mkv файлы он отображает значком плэй.
Еще заметил одну вещь к примеру скаченный аватар, он напрочь не желает воспроизводить, ругается ошибкой о невозможности воспроизвести. А некоторый фильмы в iso он воспроизводит только определенный видео файл кот находится в папках образа, но не фильм только.Хотя на компе все норм.
Теперь скачал WinISO и пытаюсь мудрить что-то с файлом....Может для четкого воспроизведение нужны определенные параметры для файла? Кто знает?
GyK07
 
Сообщения: 11
Зарегистрирован: 18 янв 2014, 17:22

Re: Проблемы с файлами ISO!

Сообщение GyK07 » 03 фев 2014, 03:18

Админы! Люди добрые! Да хоть кто угодно....Кто мог столкнуться с данной проблемой, и у кого получилось решить. Или хоть есть какие-нибудь идеи по решению данной проблемы, отпишитесь пожалуйста.
Честно скачать я устал уже чудить с файлами ISO не могу разобраться почему они не читаются. И почему некоторые ISO он читает только определенные файлы? Может кодеки какие-то не те или что-то еще.И еще, чем отличается BD3D iso от просто Blu-Ray 3D iso?
У меня уже мозги закипают от всего этого.
Может вообще не заморачиваться и скачивать фильмы в MKV формате и не забивать себе голову? Кто может сказать есть ли существенная разница в качестве между просмотром таких файлов в 3D?
GyK07
 
Сообщения: 11
Зарегистрирован: 18 янв 2014, 17:22

Re: Проблемы с файлами ISO!

Сообщение Support2 » 03 фев 2014, 13:46

GyK07 писал(а):Админы! Люди добрые! Да хоть кто угодно....Кто мог столкнуться с данной проблемой, и у кого получилось решить. Или хоть есть какие-нибудь идеи по решению данной проблемы, отпишитесь пожалуйста.
Честно скачать я устал уже чудить с файлами ISO не могу разобраться почему они не читаются. И почему некоторые ISO он читает только определенные файлы? Может кодеки какие-то не те или что-то еще.И еще, чем отличается BD3D iso от просто Blu-Ray 3D iso?
У меня уже мозги закипают от всего этого.
Может вообще не заморачиваться и скачивать фильмы в MKV формате и не забивать себе голову? Кто может сказать есть ли существенная разница в качестве между просмотром таких файлов в 3D?


Пришлите описание (mediainfo) ISO образа, который не открывается
XDS1003D+Toucan DUO+NETTAB SKAT 3G QUAD +Samsung UE32D6530WS
Прошивки + FAQ по плеерам XDS/XDR/HDS/HDR (на чипе Realtek)
Аватара пользователя
Support2
Модератор
 
Сообщения: 7673
Зарегистрирован: 12 дек 2007, 18:34

Re: Проблемы с файлами ISO!

Сообщение GyK07 » 04 фев 2014, 00:17

Support2 писал(а):
GyK07 писал(а):Админы! Люди добрые! Да хоть кто угодно....Кто мог столкнуться с данной проблемой, и у кого получилось решить. Или хоть есть какие-нибудь идеи по решению данной проблемы, отпишитесь пожалуйста.
Честно скачать я устал уже чудить с файлами ISO не могу разобраться почему они не читаются. И почему некоторые ISO он читает только определенные файлы? Может кодеки какие-то не те или что-то еще.И еще, чем отличается BD3D iso от просто Blu-Ray 3D iso?
У меня уже мозги закипают от всего этого.
Может вообще не заморачиваться и скачивать фильмы в MKV формате и не забивать себе голову? Кто может сказать есть ли существенная разница в качестве между просмотром таких файлов в 3D?


Пришлите описание (mediainfo) ISO образа, который не открывается

к примеру первый попавшийся фильм на вскидку...Ааватар
General
ID : 0 (0x0)
Complete name : F:\BDMV\STREAM\00000.m2ts
Format : BDAV
Format/Info : Blu-ray Video
File size : 26.0 GiB
Duration : 2h 41mn
Overall bit rate mode : Variable
Overall bit rate : 23.0 Mbps
Maximum Overall bit rate : 48.0 Mbps

Video
ID : 4113 (0x1011)
Menu ID : 1 (0x1)
Format : AVC
Format/Info : Advanced Video Codec
Format profile : High@L4.1
Format settings, CABAC : Yes
Format settings, ReFrames : 3 frames
Format settings, GOP : M=3, N=24
Codec ID : 27
Duration : 2h 41mn
Bit rate : 21.3 Mbps
Width : 1 920 pixels
Height : 1 080 pixels
Display aspect ratio : 16:9
Frame rate : 23.976 fps
Color space : YUV
Chroma subsampling : 4:2:0
Bit depth : 8 bits
Scan type : Progressive
Bits/(Pixel*Frame) : 0.429
Stream size : 24.1 GiB (93%)

Audio
ID : 4352 (0x1100)
Menu ID : 1 (0x1)
Format : DTS
Format/Info : Digital Theater Systems
Mode : 16
Format settings, Endianness : Big
Codec ID : 130
Duration : 2h 41mn
Bit rate mode : Constant
Bit rate : 768 Kbps
Channel(s) : 6 channels
Channel positions : Front: L C R, Side: L R, LFE
Sampling rate : 48.0 KHz
Bit depth : 24 bits
Compression mode : Lossy
Stream size : 888 MiB (3%)

Text
ID : 4608 (0x1200)
Menu ID : 1 (0x1)
Format : PGS
Codec ID : 144
iso образ не получается воспроизвести никак
Методом тыка извлек этот файл с образа программой tsMuxerGUI и на выходе поставил галку на blu-ray folder. После преобразования получил папку. иииии....после того как я скидываю папку на жесткий диск и подсоединяю , как я его ласково называю, к исtoucan, он, может воспроизвести папку через программу галерея, которая в приложениях.НО, через это приложение нет возможности включить в плеере 3D режим.
GyK07
 
Сообщения: 11
Зарегистрирован: 18 янв 2014, 17:22

Re: Проблемы с файлами ISO!

Сообщение Support2 » 04 фев 2014, 13:39

GyK07 писал(а):iso образ не получается воспроизвести никак
Методом тыка извлек этот файл с образа программой tsMuxerGUI и на выходе поставил галку на blu-ray folder. После преобразования получил папку. иииии....после того как я скидываю папку на жесткий диск и подсоединяю , как я его ласково называю, к исtoucan, он, может воспроизвести папку через программу галерея, которая в приложениях.НО, через это приложение нет возможности включить в плеере 3D режим.


Попробуйте подключить данный образ через виртуалку (например программа DaemonTools) и в mediainfo открыть каталог (т.е. корень виртульного диска)
XDS1003D+Toucan DUO+NETTAB SKAT 3G QUAD +Samsung UE32D6530WS
Прошивки + FAQ по плеерам XDS/XDR/HDS/HDR (на чипе Realtek)
Аватара пользователя
Support2
Модератор
 
Сообщения: 7673
Зарегистрирован: 12 дек 2007, 18:34

Re: Проблемы с файлами ISO!

Сообщение GyK07 » 05 фев 2014, 00:37

Support2 писал(а):
GyK07 писал(а):iso образ не получается воспроизвести никак
Методом тыка извлек этот файл с образа программой tsMuxerGUI и на выходе поставил галку на blu-ray folder. После преобразования получил папку. иииии....после того как я скидываю папку на жесткий диск и подсоединяю , как я его ласково называю, к исtoucan, он, может воспроизвести папку через программу галерея, которая в приложениях.НО, через это приложение нет возможности включить в плеере 3D режим.


Попробуйте подключить данный образ через виртуалку (например программа DaemonTools) и в mediainfo открыть каталог (т.е. корень виртульного диска)


Общее
Полное имя : F:\
Формат : Blu-ray movie
Продолжительность : 2 ч. 41 м.
Общий поток : 1 бит/сек

Видео
Идентификатор : 4114 (0x1012) / 4113 (0x1011)
Идентификатор меню : 1 (0x1)
Формат : AVC
Формат/Информация : Advanced Video Codec
Профиль формата : Stereo High@L4.1 / High@L4.1
Параметр CABAC формата : Да
Параметр ReFrames формата : 3 кадра
Параметр GOP формата : M=3, N=24
Идентификатор кодека : 27
Продолжительность : 2 ч. 41 м.
Битрейт : 32,0 Мбит/сек / 21,3 Мбит/сек
Ширина : 1920 пикселей
Высота : 1080 пикселей
Соотношение сторон : 16:9
Частота кадров : 23,976 кадра/сек
Цветовое пространство : YUV
Субдискретизация насыщенности : 4:2:0
Битовая глубина : 8 бит
Размер потока : 24,1 Гбайт (93%)
format_identifier : HDMV
Оригинал : 00001.m2ts / 00000.m2ts

Аудио
Идентификатор : 4352 (0x1100)
Идентификатор меню : 1 (0x1)
Формат : DTS
Формат/Информация : Digital Theater Systems
Режим : 16
Параметр Endianness формата : Big
Идентификатор кодека : 130
Продолжительность : 2 ч. 41 м.
Вид битрейта : Постоянный
Битрейт : 768 Кбит/сек
Каналы : 6 каналов
Расположение каналов : Front: L C R, Side: L R, LFE
Частота : 48,0 КГц
Битовая глубина : 24 бит
Метод сжатия : С потерями
Размер потока : 888 Мбайт (3%)
Язык : Russian
Оригинал : 00000.m2ts

Текст
Идентификатор : 4608 (0x1200)
Идентификатор меню : 1 (0x1)
Формат : PGS
Идентификатор кодека : 144
Продолжительность : 2 ч. 41 м.
Язык : Navaho
Оригинал : 00000.m2ts

Меню
00:00:00.000 : Chapter 1
00:02:02.747 : Chapter 2
00:05:11.477 : Chapter 3
00:07:43.880 : Chapter 4
00:11:38.072 : Chapter 5
00:15:12.912 : Chapter 6
00:17:53.655 : Chapter 7
00:20:31.313 : Chapter 8
00:24:44.357 : Chapter 9
00:29:43.323 : Chapter 10
00:32:15.725 : Chapter 11
00:36:07.957 : Chapter 12
00:37:59.026 : Chapter 13
00:41:40.831 : Chapter 14
00:44:36.757 : Chapter 15
00:48:19.354 : Chapter 16
00:51:33.048 : Chapter 17
00:53:58.068 : Chapter 18
00:55:37.083 : Chapter 19
00:58:43.311 : Chapter 20
01:02:10.268 : Chapter 21
01:05:38.768 : Chapter 22
01:10:07.036 : Chapter 23
01:12:58.749 : Chapter 24
01:16:12.818 : Chapter 25
01:19:56.625 : Chapter 26
01:23:06.606 : Chapter 27
01:25:56.442 : Chapter 28
01:28:43.776 : Chapter 29
01:31:20.516 : Chapter 30
01:35:11.997 : Chapter 31
01:36:49.804 : Chapter 32

Общее
Полное имя : F:\\CERTIFICATE\id.bdmv
Размер файла : 104 байт

Общее
Полное имя : F:\\CERTIFICATE\BACKUP\id.bdmv
Размер файла : 104 байт

Общее
Полное имя : F:\\AACS\Content001.cer
Размер файла : 144 байт

Общее
Полное имя : F:\\AACS\MKB_RW.inf
Размер файла : 1,00 Мбайт

Общее
Полное имя : F:\\AACS\MKB_RO.inf
Размер файла : 1,00 Мбайт

Общее
Полное имя : F:\\AACS\mcmf.xml
Размер файла : 350 байт

Общее
Полное имя : F:\\AACS\Unit_Key_RO.inf
Размер файла : 64,0 Кбайт

Общее
Полное имя : F:\\AACS\CPSUnit00001.cci
Размер файла : 2,00 Кбайт

Общее
Полное имя : F:\\AACS\ContentRevocation.lst
Размер файла : 1,00 Мбайт

Общее
Полное имя : F:\\AACS\Content000.cer
Размер файла : 144 байт

Общее
Полное имя : F:\\AACS\DUPLICATE\Content001.cer
Размер файла : 144 байт

Общее
Полное имя : F:\\AACS\DUPLICATE\MKB_RW.inf
Размер файла : 1,00 Мбайт

Общее
Полное имя : F:\\AACS\DUPLICATE\MKB_RO.inf
Размер файла : 1,00 Мбайт

Общее
Полное имя : F:\\AACS\DUPLICATE\mcmf.xml
Размер файла : 350 байт

Общее
Полное имя : F:\\AACS\DUPLICATE\Unit_Key_RO.inf
Размер файла : 64,0 Кбайт

Общее
Полное имя : F:\\AACS\DUPLICATE\CPSUnit00001.cci
Размер файла : 2,00 Кбайт

Общее
Полное имя : F:\\AACS\DUPLICATE\ContentRevocation.lst
Размер файла : 1,00 Мбайт

Общее
Полное имя : F:\\AACS\DUPLICATE\Content000.cer
Размер файла : 144 байт

Общее
Полное имя : F:\\AACS\DUPLICATE\ContentHash001.tbl
Размер файла : 810 Кбайт

Общее
Полное имя : F:\\AACS\DUPLICATE\ContentHash000.tbl
Размер файла : 836 Кбайт

Общее
Полное имя : F:\\AACS\ContentHash001.tbl
Размер файла : 810 Кбайт

Общее
Полное имя : F:\\AACS\ContentHash000.tbl
Размер файла : 836 Кбайт

Сделал...надеюсь тебе эта инфа нужна была)))
GyK07
 
Сообщения: 11
Зарегистрирован: 18 янв 2014, 17:22

Re: Проблемы с файлами ISO!

Сообщение Support2 » 05 фев 2014, 13:57

GyK07 писал(а):Сделал...надеюсь тебе эта инфа нужна была)))


Скорее всего проблема в защите (AACS)
XDS1003D+Toucan DUO+NETTAB SKAT 3G QUAD +Samsung UE32D6530WS
Прошивки + FAQ по плеерам XDS/XDR/HDS/HDR (на чипе Realtek)
Аватара пользователя
Support2
Модератор
 
Сообщения: 7673
Зарегистрирован: 12 дек 2007, 18:34

Re: Проблемы с файлами ISO!

Сообщение KASiK » 06 фев 2014, 19:06

Support2 писал(а):Скорее всего проблема в защите (AACS)

И как с ней бороться теперь? Как-то обойти ее можно?
Почему же на ПК все работает, а тут нет?
KASiK
 
Сообщения: 6
Зарегистрирован: 09 янв 2014, 01:10

Re: Проблемы с файлами ISO!

Сообщение GyK07 » 06 фев 2014, 22:45

Support2 писал(а):
GyK07 писал(а):Сделал...надеюсь тебе эта инфа нужна была)))


Скорее всего проблема в защите (AACS)

Да.
как ее обойти? Какие еще параметры должны быть соблюдены что бы можно было спокойно смотреть blu-ray 3D фильмы?
Может надо перебрать ISO? Если перебирать то какие параметры ставить и чем лучше перебирать?
Вопрос остается более чем актуальным.
интересно, разработчики работают над этой, так назовем, недоработкой? или они просто забили большой болт?
GyK07
 
Сообщения: 11
Зарегистрирован: 18 янв 2014, 17:22

Пред.След.

Вернуться в Toucan SMART серия



Кто сейчас на конференции

Сейчас этот форум просматривают: нет зарегистрированных пользователей и гости: 2